<?xml version="1.0" standalone="no"?>
<!DOCTYPE svg PUBLIC "-//W3C//DTD SVG 1.1//EN" "http://www.w3.org/Graphics/SVG/1.1/DTD/svg11.dtd">
<svg xmlns="http://www.w3.org/2000/svg">
<metadata>Copyright (C) 2023 by original authors @ fontello.com</metadata>
<defs>
<font id="fontello" horiz-adv-x="1000" >
<font-face font-family="fontello" font-weight="400" font-stretch="normal" units-per-em="1000" ascent="850" descent="-150" />
<missing-glyph horiz-adv-x="1000" />
<glyph glyph-name="cw" unicode="&#xe800;" d="M857 707v-250q0-14-10-25t-26-11h-250q-23 0-32 23-10 22 7 38l77 77q-82 77-194 77-58 0-111-23t-91-61-61-91-23-111 23-111 61-91 91-61 111-23q66 0 125 29t100 82q4 6 13 7 8 0 14-5l76-77q5-4 6-11t-5-13q-60-74-147-114t-182-41q-87 0-167 34t-136 92-92 137-34 166 34 166 92 137 136 92 167 34q82 0 158-31t137-88l72 72q17 18 39 8 22-9 22-33z" horiz-adv-x="857.1" />

<glyph glyph-name="ccw" unicode="&#xe801;" d="M857 350q0-87-34-166t-91-137-137-92-166-34q-96 0-183 41t-147 114q-4 6-4 13t5 11l76 77q6 5 14 5 9-1 13-7 41-53 100-82t126-29q58 0 110 23t92 61 61 91 22 111-22 111-61 91-92 61-110 23q-55 0-105-20t-90-57l77-77q17-16 8-38-10-23-33-23h-250q-15 0-25 11t-11 25v250q0 24 22 33 22 10 39-8l72-72q60 57 137 88t159 31q87 0 166-34t137-92 91-137 34-166z" horiz-adv-x="857.1" />

<glyph glyph-name="location-outline" unicode="&#xe802;" d="M416 741q-128 0-221-90-91-88-91-216 0-126 91-215l221-219 223 219q90 88 90 215 0 129-90 216-93 90-223 90z m0 104q174 0 295-120t122-290-122-290l-295-290-293 290q-123 120-123 290t123 290 293 120z m0-286q-52 0-91-39t-39-92 39-92q38-37 91-37 55 0 93 37 39 39 39 92t-39 92-93 39z m0 52q75 0 129-53t54-129-54-129-129-54-128 54-54 129 54 129 128 53z" horiz-adv-x="833" />

<glyph glyph-name="down" unicode="&#xe803;" d="M0 283q0 25 18 43t44 18 42-18l244-243v642q0 25 18 43t43 18 43-18 18-43v-642l243 243q18 18 43 18t43-18q18-18 18-43t-18-44l-390-390-391 390q-18 20-18 44z" horiz-adv-x="817.4" />

<glyph glyph-name="right" unicode="&#xe804;" d="M0 347q0 26 18 43t43 17h642l-242 244q-19 18-19 44t19 42q17 19 42 19t44-19l390-390-390-391q-20-18-44-18t-42 18-19 44 19 43l242 242h-642q-25 0-43 18t-18 44z" horiz-adv-x="938" />

<glyph glyph-name="left" unicode="&#xe805;" d="M0 353l390 391q19 18 44 18 25 0 43-18t18-44-18-43l-243-243h642q25 0 43-18t18-43-18-43-43-18h-642l243-243q18-18 18-44t-18-43-43-18-44 18z" horiz-adv-x="938" />

<glyph glyph-name="up" unicode="&#xe806;" d="M0 354q0 26 18 44l391 390 390-390q18-18 18-44 0-26-18-43-18-18-43-18t-43 18l-243 243v-642q0-25-18-43t-43-18q-26 0-44 18t-17 43v642l-244-243q-18-18-43-18t-43 18q-18 17-18 43z" horiz-adv-x="817.4" />

<glyph glyph-name="user" unicode="&#xe807;" d="M714 69q0-60-35-104t-84-44h-476q-49 0-84 44t-35 104q0 48 5 90t17 85 33 73 52 50 76 19q73-72 174-72t175 72q42 0 75-19t52-50 33-73 18-85 4-90z m-143 495q0-88-62-151t-152-63-151 63-63 151 63 152 151 63 152-63 62-152z" horiz-adv-x="714.3" />

<glyph glyph-name="cog" unicode="&#xe808;" d="M571 350q0 59-41 101t-101 42-101-42-42-101 42-101 101-42 101 42 41 101z m286 61v-124q0-7-4-13t-11-7l-104-16q-10-30-21-51 19-27 59-77 6-6 6-13t-5-13q-15-21-55-61t-53-39q-7 0-14 5l-77 60q-25-13-51-21-9-76-16-104-4-16-20-16h-124q-8 0-14 5t-6 12l-16 103q-27 9-50 21l-79-60q-6-5-14-5-8 0-14 6-70 64-92 94-4 5-4 13 0 6 5 12 8 12 28 37t30 40q-15 28-23 55l-102 15q-7 1-11 7t-5 13v124q0 7 5 13t10 7l104 16q8 25 22 51-23 32-60 77-6 7-6 14 0 5 5 12 15 20 55 60t53 40q7 0 15-5l77-60q24 13 50 21 9 76 17 104 3 16 20 16h124q7 0 13-5t7-12l15-103q28-9 51-20l79 59q5 5 13 5 7 0 14-5 72-67 92-95 4-5 4-12 0-7-4-13-9-12-29-37t-30-40q15-28 23-54l102-16q7-1 12-7t4-13z" horiz-adv-x="857.1" />

<glyph glyph-name="ok-circled2" unicode="&#xe809;" d="M0 350q0 207 147 354t353 146 354-146 146-354-146-354-354-146-353 146-147 354z m109 0q0-162 115-276t276-115 276 115 115 276-115 276-276 115-276-115-115-276z m106-51l94 92 93-94 289 291 94-93-291-289-92-94-93 94z" horiz-adv-x="1000" />

<glyph glyph-name="cancel-circled2" unicode="&#xe80a;" d="M0 350q0 207 147 354t353 146 354-146 146-354-146-354-354-146-353 146-147 354z m109 0q0-162 115-276t276-115 276 115 115 276-115 276-276 115-276-115-115-276z m145-137l137 137-137 137 109 109 137-137 137 137 109-109-137-137 137-137-109-109-137 137-137-137z" horiz-adv-x="1000" />

<glyph glyph-name="briefcase" unicode="&#xe80b;" d="M357 707h286v72h-286v-72z m643-357v-268q0-37-26-63t-63-26h-822q-36 0-63 26t-26 63v268h375v-89q0-15 11-25t25-11h178q15 0 25 11t11 25v89h375z m-429 0v-71h-142v71h142z m429 268v-214h-1000v214q0 37 26 63t63 26h197v89q0 23 15 38t38 16h322q22 0 38-16t15-38v-89h197q37 0 63-26t26-63z" horiz-adv-x="1000" />

<glyph glyph-name="ok" unicode="&#xe80c;" d="M0 260l162 162 166-164 508 510 164-164-510-510-162-162-162 164z" horiz-adv-x="1000" />

<glyph glyph-name="cancel" unicode="&#xe80d;" d="M0 71l279 279-279 279 221 221 279-279 279 279 221-221-279-279 279-279-221-221-279 279-279-279z" horiz-adv-x="1000" />

<glyph glyph-name="menu" unicode="&#xe80e;" d="M650 400q22 0 36-15t14-35-15-35-35-15l-600 0q-20 0-35 15t-15 35 14 35 36 15l600 0z m-600 100q-20 0-35 15t-15 35 14 35 36 15l600 0q22 0 36-15t14-35-15-35-35-15l-600 0z m600-300q22 0 36-15t14-35-15-35-35-15l-600 0q-20 0-35 15t-15 35 14 35 36 15l600 0z" horiz-adv-x="700" />

<glyph glyph-name="user-friend" unicode="&#xe80f;" d="M438 350q105 2 177 72v0q71 73 73 178-2 106-73 178-72 70-177 72-106-2-178-72-71-72-72-178 1-105 72-178 72-70 178-72v0z m0 406q66-2 111-45v0q43-45 45-111-2-66-45-111-45-43-111-45-67 2-112 45-43 45-45 111 2 66 45 111 45 43 112 45v0z m99-500h-199q-143-4-238-99t-100-239q0-29 20-49t48-19h739q29 0 49 19t19 49q-4 143-100 239t-238 99v0z m-441-312q11 94 78 156v0q68 61 164 63h199q96-2 162-63 69-62 80-156h-683z m840 281h-145q68-57 108-135 39-80 39-172 0-39-20-68h270q27 0 45 19 17 18 17 45-4 131-92 219t-222 92v0z m-92 125q94 2 154 65v0q63 60 65 154-2 94-65 154-60 63-154 65-74-2-131-45 35-65 37-143-2-105-62-185 62-63 156-65v0z" horiz-adv-x="1250" />

<glyph glyph-name="circle-user" unicode="&#xe810;" d="M500 850c-276 0-500-224-500-500s224-500 500-500 500 224 500 500-224 500-500 500z m0-250c78 0 141-63 141-141s-63-140-141-140c-78 0-141 63-141 140s63 141 141 141z m0-625c-103 0-197 42-265 110 32 82 110 140 203 140h125c92 0 171-58 202-140-68-68-162-110-265-110z" horiz-adv-x="1000" />

<glyph glyph-name="coins" unicode="&#xe811;" d="M0 58v-83c0-69 168-125 375-125s375 56 375 125v83c-81-56-228-83-375-83s-294 27-375 83z m625 542c207 0 375 56 375 125s-168 125-375 125-375-56-375-125 168-125 375-125z m-625-337v-100c0-69 168-125 375-125s375 56 375 125v100c-81-66-228-100-375-100s-294 34-375 100z m813-21c111 22 187 62 187 108v83c-45-32-112-53-187-67v-124z m-438 296c-207 0-375-70-375-157s168-156 375-156 375 70 375 156-168 157-375 157z m428-110c118 21 197 62 197 110v83c-69-49-188-75-314-82 58-28 100-65 117-111z" horiz-adv-x="1000" />

<glyph glyph-name="user-gear" unicode="&#xe812;" d="M830-93c-4 3-9 5-13 8l-15-9c-12-7-25-10-39-10-21 0-41 9-56 25-36 39-63 86-79 136-10 36 5 72 35 89l16 9c-1 5-1 10 0 15l-15 9c-24 13-38 38-39 65-28 8-58 12-88 12h-198c-187 0-339-151-339-338 0-38 30-68 68-68h739c11 0 22 3 31 8-5 10-8 20-8 31v18z m-392 443c138 0 250 112 250 250s-112 250-250 250c-139 0-250-112-250-250s111-250 250-250z m754-229c6 27 6 56 0 83l51 29c6 3 8 10 6 17-13 42-35 80-65 112-4 5-11 6-17 3l-50-29c-22 18-46 32-73 41v58c0 7-4 13-11 14-43 10-88 10-129 0-6-1-11-7-11-14v-58c-27-9-51-23-72-41l-51 29c-5 3-13 2-17-3-30-32-52-70-65-112-2-7 1-13 6-17l51-29c-5-27-5-56 0-83l-51-29c-5-3-8-10-6-17 13-42 35-80 65-112 4-5 12-6 17-3l51 29c21-18 46-32 72-41v-59c0-6 5-12 11-13 44-10 88-10 129 0 7 1 12 7 12 13v59c26 9 50 23 72 41l50-29c5-3 13-2 17 3 30 32 52 70 65 112 2 7 0 14-6 17l-51 29z m-223-53c-52 0-95 42-95 95s43 94 95 94c52 0 95-42 95-94s-43-95-95-95z" horiz-adv-x="1250" />

<glyph glyph-name="pen-to-square" unicode="&#xe813;" d="M958 771c42-43 42-112 0-155l-59-58-191 191 58 59c43 42 112 42 155 0l37-37z m-621-393l327 327 191-191-327-327c-12-12-27-21-43-27l-173-58c-19-5-36-1-48 13-13 11-17 30-12 47l58 173c6 16 15 31 27 43v0z m38 349c35 0 63-30 63-63 0-36-28-62-63-62h-187c-35 0-63-30-63-63v-501c0-35 28-63 63-63h500c34 0 62 28 62 63v189c0 33 28 62 63 62 34 0 62-29 62-62v-189c0-104-84-188-187-188h-500c-104 0-188 84-188 188v501c0 104 84 188 188 188h187z" horiz-adv-x="1000" />

<glyph glyph-name="check" unicode="&#xe814;" d="M1274 820c35-40 35-103-2-141l-760-801c-37-38-96-37-132 2l-354 390c-35 40-35 103 2 142 37 38 95 37 131-2l289-319 694 731c37 38 96 37 132-2z" horiz-adv-x="1300" />

<glyph glyph-name="map" unicode="&#xe815;" d="M667-150l-334 117-258-100c-18-8-36-6-51 6-16 11-24 27-24 46v778c0 12 4 23 10 32 7 9 17 16 29 21l294 100 334-117 258 100c19 8 36 6 51-6 16-11 24-27 24-46v-778c0-12-3-23-10-32-7-9-17-16-29-21l-294-100z m-56 136v650l-222 78v-650l222-78z" horiz-adv-x="1000" />

<glyph glyph-name="gift" unicode="&#xe816;" d="M378 770c-79 0-156-76-121-170h-132a83 83 0 0 1-83-83v-84a42 42 0 0 1 41-41h375v125h84v-125h375a42 42 0 0 1 41 41v84a83 83 0 0 1-83 83h-132c49 136-135 233-219 115l-24-32-24 33c-26 37-62 53-98 54m-3-87c37 0 56-45 30-71-27-26-72-7-72 30a42 42 0 0 0 42 41m250 0c37 0 56-45 30-71-27-26-72-7-72 30a42 42 0 0 0 42 41m-542-333v-333a83 83 0 0 1 84-84h666a83 83 0 0 1 84 84v333h-375v-333h-84v333h-375z" horiz-adv-x="1000" />

<glyph glyph-name="link" unicode="&#xe817;" d="M8 96q-17 66 0 132t67 115l131 131q49 49 115 67t131 0 116-67q20-20 20-49t-20-50-50-20-49 20q-35 34-82 34t-81-34l-132-131q-33-34-33-82t33-82q34-33 82-33t81 33l27 28q78-38 164-35l-91-92q-49-49-115-66t-132 0-115 66-67 115z m291 180q0 29 21 49 20 21 49 21t50-21q33-34 81-34t82 34l131 132q34 34 34 81t-34 81q-33 34-81 34t-82-34l-27-26q-77 36-164 35l91 91q50 49 116 66t131 0 115-66q49-49 67-115t0-132-67-115l-131-131q-49-49-115-67t-132 0-114 67q-21 21-21 50z" horiz-adv-x="887.2" />

<glyph glyph-name="timer" unicode="&#xe818;" d="M500 16q121 0 206 86t85 207-85 206-206 85-206-85-85-206 85-207 206-86z m293 525q33-42 58-110t24-122q0-154-109-265t-266-110-266 110-109 265 109 265 266 110q53 0 122-25t112-59l59 61q31-26 59-59z m-334-275v250h82v-250h-82z m166 543v-84h-250v84h250z" horiz-adv-x="1000" />

<glyph glyph-name="paid-access" unicode="&#xe819;" d="M455 0h88v63c41 7 77 23 107 48 30 25 45 62 45 112 0 35-10 67-30 96-20 29-60 54-120 76-50 17-85 31-104 44-19 12-28 29-28 51 0 22 7 39 23 51 15 13 37 19 67 19 26 0 47-6 62-19 15-13 26-29 33-48l80 32c-10 29-26 55-51 76-25 22-52 34-82 37v62h-87v-62c-42-10-75-28-98-55-23-28-35-59-35-93 0-39 12-71 34-95 23-24 59-45 109-62 52-20 89-37 109-52 20-15 31-34 31-58 0-28-10-48-30-61-19-13-43-19-70-19-28 0-52 8-74 25-21 17-36 43-46 77l-83-32c12-40 30-73 54-97 25-25 57-42 96-51v-65z m45-150c-69 0-134 13-195 39-61 27-114 62-159 107-45 45-80 98-107 159-26 61-39 126-39 195 0 69 13 134 39 195 27 61 62 114 107 159 45 45 98 80 159 107 61 26 126 39 195 39 69 0 134-13 195-39 61-27 114-62 159-107 45-45 80-98 107-159 26-61 39-126 39-195 0-69-13-134-39-195-27-61-62-114-107-159-45-45-98-80-159-107-61-26-126-39-195-39z" horiz-adv-x="1000" />

<glyph glyph-name="work" unicode="&#xe81a;" d="M1167 700h-234v117c0 64-52 116-116 116h-234c-64 0-116-52-116-116v-117h-234c-64 0-116-52-116-117l0-641c0-65 52-117 116-117h934c64 0 116 52 116 117v641c0 65-52 117-116 117z m-350 0h-234v117h234v-117z" horiz-adv-x="1417" />

<glyph glyph-name="content_copy" unicode="&#xe81b;" d="M791-25v584h-457v-584h457z m0 666q33 0 59-24t25-58v-584q0-33-25-59t-59-25h-457q-33 0-59 25t-25 59v584q0 33 25 58t59 24h457z m-125 168v-84h-500v-584h-82v584q0 33 24 59t58 25h500z" horiz-adv-x="1000" />

<glyph glyph-name="google" unicode="&#xe81c;" d="M500 850c-276 0-500-224-500-500s224-500 500-500 500 224 500 500-224 500-500 500z m7-875c-207 0-375 168-375 375s168 375 375 375c102 0 186-37 252-98l-102-98c-28 27-77 58-150 58-128 0-232-106-232-237s105-237 232-237c149 0 205 107 213 162h-213v129h355c3-19 5-38 5-63 1-214-143-366-360-366z" horiz-adv-x="1000" />

<glyph glyph-name="mail" unicode="&#xe81d;" d="M129-150c-36 0-66 12-91 37-25 24-38 54-38 88v750c0 34 13 64 38 88 25 25 55 37 91 37h1028c36 0 66-12 91-37 25-24 38-54 38-88v-750c0-34-13-64-38-88-25-25-55-37-91-37h-1028z m514 448c5 0 11 1 17 3 6 1 11 4 17 7l454 276c9 6 15 12 20 20 4 8 6 16 6 26 0 21-9 36-27 47-18 10-37 10-56-2l-431-262-431 262c-19 12-38 12-56 1-18-11-27-26-27-46 0-11 2-20 6-28 4-7 11-13 19-18l455-276c6-3 11-6 17-7 6-2 12-3 17-3z" horiz-adv-x="1286" />

<glyph glyph-name="alert-cirle" unicode="&#xe81e;" d="M500 100c14 0 26 5 36 14 9 10 14 22 14 36 0 14-5 26-14 36-10 9-22 14-36 14-14 0-26-5-36-14-9-10-14-22-14-36 0-14 5-26 14-36 10-9 22-14 36-14z m0 200c14 0 26 5 36 14 9 10 14 22 14 36v200c0 14-5 26-14 36-10 9-22 14-36 14-14 0-26-5-36-14-9-10-14-22-14-36v-200c0-14 5-26 14-36 10-9 22-14 36-14z m0-450c-69 0-134 13-195 39-61 27-114 62-159 107-45 45-80 98-107 159-26 61-39 126-39 195 0 69 13 134 39 195 27 61 62 114 107 159 45 45 98 80 159 107 61 26 126 39 195 39 69 0 134-13 195-39 61-27 114-62 159-107 45-45 80-98 107-159 26-61 39-126 39-195 0-69-13-134-39-195-27-61-62-114-107-159-45-45-98-80-159-107-61-26-126-39-195-39z" horiz-adv-x="1000" />

<glyph glyph-name="date" unicode="&#xe81f;" d="M0 650c0 55 45 100 100 100h700c27 0 52-10 71-29 19-19 29-44 29-71v-700c0-27-10-52-29-71-19-19-44-29-71-29h-700c-26 0-52 10-71 29-18 19-29 44-29 71v700z m100-100v-600h700v600h-700z m100 300h100v-100h-100v100z m400 0h100v-100h-100v100z m-400-450h100v-100h-100v100z m0-200h100v-100h-100v100z m200 200h100v-100h-100v100z m0-200h100v-100h-100v100z m200 200h100v-100h-100v100z m0-200h100v-100h-100v100z" horiz-adv-x="900" />

<glyph glyph-name="blacklist" unicode="&#xe820;" d="M457 850c-60 0-119-23-161-65-43-42-67-98-67-157 0-59 24-116 67-157 42-42 101-65 161-65 61 0 119 23 162 65 43 41 67 98 67 157 0 59-24 115-67 157-43 42-101 65-162 65z m429-500c-143 0-257-111-257-250 0-139 114-250 257-250 143 0 257 111 257 250 0 139-114 250-257 250z m-429-56c-252 0-457-99-457-222v-111h543c-19 44-29 91-29 139 1 66 19 130 55 187-36 4-73 7-112 7z m429-27c95 0 171-75 171-167 0-31-8-60-24-83l-233 226c24 15 54 24 86 24z m-148-84l233-226c-24-15-53-24-85-24-95 0-172 75-172 167 0 31 9 60 24 83z" horiz-adv-x="1143" />

<glyph glyph-name="heart-empty" unicode="&#xe821;" d="M929 517q0 46-12 80t-31 55-46 33-52 18-55 4-62-14-62-36-48-40-34-34q-10-13-27-13t-27 13q-14 15-34 34t-48 40-62 36-62 14-55-4-52-18-46-33-31-55-12-80q0-93 105-198l324-312 324 312q105 105 105 198z m71 0q0-123-128-251l-347-335q-10-10-25-10t-25 10l-348 336q-5 5-15 15t-31 37-38 54-30 67-13 77q0 123 71 192t196 70q34 0 70-12t67-33 54-38 42-38q20 20 42 38t54 38 67 33 70 12q125 0 196-70t71-192z" horiz-adv-x="1000" />

<glyph glyph-name="mobile" unicode="&#xe822;" d="M238-14h191v46h-191v-46z m-143-136c-26 0-48 9-67 27-19 17-28 39-28 64v818c0 25 9 47 28 64 19 18 41 27 67 27h476c27 0 49-9 68-27 18-17 28-39 28-64v-818c0-25-10-47-28-64-19-18-41-27-68-27h-476z m0 318h476v455h-476v-455z" horiz-adv-x="667" />

<glyph glyph-name="doc" unicode="&#xe823;" d="M47-150h656c26 0 47 21 47 47v656c0 1 0 1 0 2 0 0 0 1-1 2 0 2-1 4-2 6-1 0-1 0-1 1l-250 281c0 0 0 0 0 0-2 2-4 3-7 4-1 0-1 0-2 1-1 0-2 0-3 0h-437c-26 0-47-21-47-47v-906c0-26 21-47 47-47z m453 943l200-224h-184c-7 0-16 13-16 23v201z m-469 10c0 9 7 16 16 16h422v-227c0-25 20-54 47-54h203v-641c0-9-7-16-16-16h-656c-9 0-16 7-16 16v906z m141-390h406c9 0 16 7 16 15s-7 16-16 16h-406c-9 0-16-7-16-16s7-15 16-15z m0-125h406c9 0 16 7 16 15s-7 16-16 16h-406c-9 0-16-7-16-16s7-15 16-15z m0 250h187c9 0 16 7 16 15s-7 16-16 16h-187c-9 0-16-7-16-16s7-15 16-15z m0-375h406c9 0 16 7 16 15s-7 16-16 16h-406c-9 0-16-7-16-16s7-15 16-15z m0-125h406c9 0 16 7 16 15s-7 16-16 16h-406c-9 0-16-7-16-16s7-15 16-15z" horiz-adv-x="750" />

<glyph glyph-name="docx" unicode="&#xe824;" d="M162 847c-8-4-17-11-21-19-3-6-3-22-4-171l0-164-18-1c-22-1-35-6-46-18-16-17-15-7-15-185 0-156 0-157 4-166 10-22 27-33 57-34l18-1 0-105c1-115 0-110 13-122 13-12-12-11 350-11s338-1 350 11c13 12 12 7 13 122l1 105 17 1c30 1 47 12 57 34 4 9 4 10 4 167 0 177 1 167-15 184-11 12-24 17-46 18l-18 1 0 59c0 32-1 61-1 64-2 6-195 226-202 231-5 3-27 3-248 3-213 0-244-1-250-3z m469-140v-103l6-6 5-7 182-1v-97h-648v318h455v-104z m-163-298c40-14 63-52 63-102 0-59-32-100-85-108-54-8-97 21-111 73-5 17-5 49 0 66 10 40 37 66 76 75 13 2 44 0 57-4z m239 0c6-1 11-3 12-3 0-1-2-9-4-20-4-15-5-18-8-17-18 7-45 8-62 2-26-9-41-33-41-65 0-33 16-57 42-65 14-4 39-4 53 0 8 3 10 3 11 1 3-8 7-34 5-35-6-6-46-10-69-7-60 7-92 44-92 105 0 34 10 59 33 80 15 14 37 25 60 28 15 2 48 0 60-4z m-474-1c36-9 59-29 70-59 6-16 7-46 3-65-9-42-33-67-77-79-13-4-20-4-57-4-23 0-44 0-45 1-4 1-4 8-4 104v102l16 2c22 3 80 2 94-2z m568-20c6-13 14-29 17-37l6-14 13 30c7 16 14 32 16 36l3 8h55l-7-12c-4-7-17-30-30-52-20-35-22-39-19-43 1-2 13-23 27-47s26-46 29-49l3-6h-55l-18 37-19 38-6-13c-3-7-10-24-17-37l-11-25-27 0c-14 0-27 0-27 0s14 24 30 52c16 29 29 53 29 54 0 1-12 24-27 51-16 27-29 49-29 50 0 1 11 2 26 2h28l10-23z m23-394v-93h-648v187h648v-94z m-404 381c-14-4-22-11-31-28-6-13-7-16-8-34-1-24 3-41 12-55 10-15 21-22 39-21 27 0 45 21 49 60 3 22-6 53-18 65-11 12-28 17-43 13z m-248-69v-69h16c47 0 72 28 69 78-1 27-11 43-31 54-9 4-13 5-32 6l-22 1v-70z" horiz-adv-x="1000" />

<glyph glyph-name="location" unicode="&#xe825;" d="M389-100l34-35c-4-5-10-9-15-11-6-3-13-4-19-4-6 0-13 1-19 4-6 2-11 6-16 11l0 0-1 1-3 3c-17 18-34 37-50 55-42 47-82 96-120 146-43 57-87 122-121 187-33 62-59 131-59 193 0 227 175 400 389 400 214 0 389-173 389-400 0-62-26-131-59-193-34-65-78-130-122-187-53-70-109-137-169-201l-3-3-1-1-1 0-34 35z m0 400c39 0 76 16 103 44 27 28 43 66 43 106 0 40-16 78-43 106-27 28-64 44-103 44-39 0-76-16-103-44-28-28-43-66-43-106 0-40 15-78 43-106 27-28 64-44 103-44z" horiz-adv-x="778" />

<glyph glyph-name="globe" unicode="&#xe826;" d="M500-150c-69 0-134 13-195 39-61 27-114 62-159 107-45 45-80 98-107 159-26 61-39 126-39 195 0 69 13 134 39 195 27 61 62 114 107 159 45 45 98 80 159 107 61 26 126 39 195 39 69 0 134-13 195-39 61-27 114-62 159-107 45-45 80-98 107-159 26-61 39-126 39-195 0-69-13-134-39-195-27-61-62-114-107-159-45-45-98-80-159-107-61-26-126-39-195-39z m-50 102v98c-27 0-51 10-71 29-19 20-29 44-29 71v50l-240 240c-2-15-5-30-7-45-2-15-3-30-3-45 0-101 33-189 99-265 67-76 150-120 251-133z m345 128c17 18 32 38 45 59 13 22 24 44 33 67 9 23 16 46 20 70 5 24 7 49 7 74 0 82-23 156-68 224-45 67-106 116-182 146v-20c0-27-10-51-29-71-20-19-43-29-71-29h-100v-100c0-14-5-26-14-36-10-9-22-14-36-14h-100v-100h300c14 0 26-5 36-14 9-10 14-22 14-36v-150h50c22 0 41-6 59-19 17-13 29-30 36-51z" horiz-adv-x="1000" />

<glyph glyph-name="bookmark" unicode="&#xe827;" d="M180 846c-4-2-7-6-8-11-1-5-2-156-2-487 0-453 0-480 3-486 5-9 13-13 21-11 5 1 39 30 156 137 82 74 149 135 150 135s68-61 150-135c119-108 151-136 156-137 9-2 18 4 22 13 3 9 3 960 0 971-1 5-4 9-8 11-6 4-13 4-320 4s-314 0-320-4z m609-484v-446l-5 5c-3 2-66 60-140 127-81 74-136 122-139 123-3 0-7 0-10 0-3-1-55-46-138-122-73-67-136-124-140-127l-6-6v893h578v-447z m-298 342c-2-1-5-3-6-4-1-2-15-30-32-62l-30-60-62-9c-75-11-73-11-79-18-5-7-6-13-2-21 2-3 24-25 50-50s47-45 47-46c0-1-5-32-11-68-11-67-11-67-7-73 5-8 11-12 19-10 3 0 32 14 64 31l59 31 9-5c51-28 107-56 112-57 11-3 23 6 23 19 0 3-5 35-11 69l-12 64 49 47c26 26 49 49 50 52 3 11-5 24-17 26-3 1-33 5-66 10-33 5-61 9-62 10s-15 28-31 60c-18 35-32 59-35 62-5 4-12 5-19 2z m32-110c13-25 25-47 27-49 4-3 13-5 56-12 28-4 51-7 51-8 1 0-15-16-35-35s-37-37-39-41c-3-6-3-9 6-57 5-28 8-51 8-51-1-1-21 9-45 22-24 12-46 23-50 24-6 0-13-3-52-23-25-13-46-24-47-23 0 0 3 23 8 51 7 38 8 51 7 55-1 3-18 21-38 40-20 19-36 36-36 37s23 5 51 9c41 7 51 9 55 12 2 2 14 24 27 49 12 25 22 45 23 45s11-20 23-45z" horiz-adv-x="1000" />

<glyph glyph-name="list" unicode="&#xe828;" d="M167 850c-44 0-87-18-118-49-31-31-49-73-49-118v-666c0-45 18-87 49-118 31-31 74-49 118-49h666c45 0 87 18 118 49 31 31 49 73 49 118v666c0 45-18 87-49 118-31 31-73 49-118 49h-666z m222-278c0 15 6 29 16 40 11 10 25 16 39 16h334c15 0 29-6 39-16 11-11 16-25 16-40 0-14-5-29-16-39-10-10-24-16-39-16h-334c-14 0-28 6-39 16-10 10-16 25-16 39z m0-222c0 15 6 29 16 39 11 11 25 17 39 17h334c15 0 29-6 39-17 11-10 16-24 16-39 0-15-5-29-16-39-10-11-24-17-39-17h-334c-14 0-28 6-39 17-10 10-16 24-16 39z m0-222c0 15 6 29 16 39 11 11 25 16 39 16h334c15 0 29-5 39-16 11-10 16-24 16-39 0-15-5-29-16-39-10-11-24-17-39-17h-334c-14 0-28 6-39 17-10 10-16 24-16 39z m-167 500c-14 0-29-6-39-16-10-11-16-25-16-40 0-14 6-29 16-39 10-10 25-16 39-16 15 0 29 6 40 16 10 10 16 25 16 39 0 15-6 29-16 40-11 10-25 16-40 16z m-55-278c0 15 6 29 16 39 10 11 25 17 39 17 15 0 29-6 40-17 10-10 16-24 16-39 0-15-6-29-16-39-11-11-25-17-40-17-14 0-29 6-39 17-10 10-16 24-16 39z m55-167c-14 0-29-5-39-16-10-10-16-24-16-39 0-15 6-29 16-39 10-11 25-17 39-17 15 0 29 6 40 17 10 10 16 24 16 39 0 15-6 29-16 39-11 11-25 16-40 16z" horiz-adv-x="1000" />

<glyph glyph-name="interviews" unicode="&#xe829;" d="M375 53c0 31 28 56 63 56h625c34 0 62-25 62-56v-147c0-31-28-56-62-56h-625c-35 0-63 25-63 56v147z m0 372c0 30 28 55 63 55h625c34 0 62-25 62-55v-148c0-31-28-56-62-56h-625c-35 0-63 25-63 56v148z m0 369c0 31 28 56 63 56h625c34 0 62-25 62-56v-147c0-31-28-56-62-56h-625c-35 0-63 25-63 56v147z m-375-741c0 31 28 56 63 56h125c34 0 62-25 62-56v-147c0-31-28-56-62-56h-125c-35 0-63 25-63 56v147z m0 372c0 30 28 55 63 55h125c34 0 62-25 62-55v-148c0-31-28-56-62-56h-125c-35 0-63 25-63 56v148z m0 369c0 31 28 56 63 56h125c34 0 62-25 62-56v-147c0-31-28-56-62-56h-125c-35 0-63 25-63 56v147z" horiz-adv-x="1125" />

<glyph glyph-name="locations" unicode="&#xe82a;" d="M389 850c-103 0-202-42-275-115-73-74-114-174-114-278 0-85 27-168 78-236 0 0 11-14 13-16l298-355 298 356c2 1 12 15 12 15l1 1c50 67 78 150 78 235 0 104-41 204-114 278-73 73-172 115-275 115z m35-571h-70v71h70v-71z m0 142h-70v72h70v-72z m142-142h-71v285h-212v-285h-71v285c0 19 8 37 21 51 13 13 31 21 50 21h212c19 0 37-8 50-21 13-14 21-32 21-51v-285z" horiz-adv-x="778" />

<glyph glyph-name="open-positions" unicode="&#xe82b;" d="M0 709c0 38 14 73 37 100 24 26 57 41 90 41h223c30 0 59-11 81-32l135-124h322c17 0 34-4 49-11 15-7 29-17 41-30 12-13 21-29 28-46 6-17 9-35 9-54v-47h-765c-29 0-56-10-78-30-23-19-39-46-45-76l-109-482c0 0 3 11 0 0-12 22-18 47-18 73l0 718z m99-820c-1-5-1-10-1-14 1-5 3-9 6-13 2-4 6-7 10-9 4-2 8-3 12-3h803c22 0 43 8 61 23 17 15 29 36 35 60l99 441c1 4 1 9 0 14 0 4-2 9-5 12-3 4-6 7-10 9-4 2-8 3-12 3h-847c-10 0-19-3-26-9-8-7-13-16-15-26l-110-488z" horiz-adv-x="1125" />

<glyph glyph-name="saved" unicode="&#xe82c;" d="M1013 741h-450l-113 109h-337c-30 0-59-11-80-32-21-20-33-48-33-77v-782c0-29 12-57 33-77 21-21 50-32 80-32h900c29 0 58 11 79 32 21 20 33 48 33 77v672c0 29-12 57-33 78-21 20-50 32-79 32z m-186-696l-166 94-165-94 44 182-146 123 192 16 75 172 76-172 201-24-155-115 44-182z" horiz-adv-x="1125" />

<glyph glyph-name="search" unicode="&#xe82d;" d="M399 850c-62 0-124-15-180-43-55-28-104-69-141-119-37-50-62-109-72-170-11-62-7-125 12-185 18-59 50-114 93-159 44-45 97-79 156-100 59-21 122-27 184-19 62 8 121 30 172 65l247-246c7-8 15-13 25-18 9-4 19-6 29-6 10 0 20 2 29 5 9 4 18 10 25 17 7 7 13 15 16 25 4 9 6 19 6 29 0 10-3 20-7 29-4 9-10 18-17 25l-247 246c41 60 65 130 69 203 4 72-12 145-46 209-34 64-85 117-147 155-62 37-133 57-206 57z m-249-399c0 66 26 129 73 176 46 47 110 73 176 73 66 0 130-26 177-73 46-47 73-110 73-176 0-66-27-130-73-177-47-46-111-73-177-73-66 0-130 27-176 73-47 47-73 111-73 177z" horiz-adv-x="1000" />

<glyph glyph-name="plus" unicode="&#xe82e;" d="M500-150c-20 0-37 7-51 21-14 13-20 30-20 50v358h-358c-20 0-37 6-50 20-14 14-21 31-21 51 0 20 7 37 21 51 13 14 30 20 50 20h358v358c0 20 6 37 20 51 14 13 31 20 51 20 20 0 37-7 51-20 14-14 20-31 20-51v-358h358c20 0 37-6 50-20 14-14 21-31 21-51 0-20-7-37-21-51-13-14-30-20-50-20h-358v-358c0-20-6-37-20-50-14-14-31-21-51-21z" horiz-adv-x="1000" />

<glyph glyph-name="dashboard" unicode="&#xe82f;" d="M56 294h333c30 0 55 25 55 56v444c0 31-25 56-55 56h-333c-31 0-56-25-56-56v-444c0-31 25-56 56-56z m0-444h333c30 0 55 25 55 56v222c0 30-25 55-55 55h-333c-31 0-56-25-56-55v-222c0-31 25-56 56-56z m555 0h333c31 0 56 25 56 56v444c0 31-25 56-56 56h-333c-30 0-55-25-55-56v-444c0-31 25-56 55-56z m-55 944v-222c0-30 25-55 55-55h333c31 0 56 25 56 55v222c0 31-25 56-56 56h-333c-30 0-55-25-55-56z m-500-500h333c30 0 55 25 55 56v444c0 31-25 56-55 56h-333c-31 0-56-25-56-56v-444c0-31 25-56 56-56z m0-444h333c30 0 55 25 55 56v222c0 30-25 55-55 55h-333c-31 0-56-25-56-55v-222c0-31 25-56 56-56z m555 0h333c31 0 56 25 56 56v444c0 31-25 56-56 56h-333c-30 0-55-25-55-56v-444c0-31 25-56 55-56z m-55 944v-222c0-30 25-55 55-55h333c31 0 56 25 56 55v222c0 31-25 56-56 56h-333c-30 0-55-25-55-56z" horiz-adv-x="1000" />

<glyph glyph-name="hires" unicode="&#xe830;" d="M400 850h200c27 0 52-11 71-31 19-20 29-46 29-74v-105h200c27 0 52-12 71-31 19-20 29-47 29-75v-579c0-28-10-54-29-74-19-20-44-31-71-31h-800c-26 0-52 11-71 31-18 20-29 46-29 74v579c0 28 11 55 29 75 19 19 45 31 71 31h200v105c0 28 11 54 29 74 19 20 45 31 71 31z m200-210v105h-200v-105h200z m-175-606l330 347-71 74-259-272-104 110-71-75 175-184z" horiz-adv-x="1000" />

<glyph glyph-name="logout" unicode="&#xe831;" d="M250 400h400v-100h-400v-150l-250 200 250 200v-150z m-50-350h135c58-51 129-84 206-96 76-11 153 0 224 31 70 32 129 83 171 148 42 65 64 140 64 217 0 77-22 152-64 217-42 65-101 116-171 148-71 31-148 42-224 31-77-12-148-45-206-96h-135c47 62 107 113 176 147 70 35 146 53 224 53 276 0 500-224 500-500 0-276-224-500-500-500-78 0-154 18-224 53-69 34-129 85-176 147z" horiz-adv-x="1100" />

<glyph glyph-name="check-circle" unicode="&#xe832;" d="M430 260l-107 108c-10 9-21 13-35 13-15 0-26-4-35-13-10-10-14-21-14-35 0-15 4-26 14-35l142-143c10-10 22-15 35-15 13 0 25 5 35 15l283 283c9 9 13 20 13 35 0 14-4 25-13 35-10 9-21 13-35 13-15 0-26-4-35-13l-248-248z m70-410c-69 0-134 13-195 39-61 27-114 62-159 107-45 45-80 98-107 159-26 61-39 126-39 195 0 69 13 134 39 195 27 61 62 114 107 159 45 45 98 80 159 107 61 26 126 39 195 39 69 0 134-13 195-39 61-27 114-62 159-107 45-45 80-98 107-159 26-61 39-126 39-195 0-69-13-134-39-195-27-61-62-114-107-159-45-45-98-80-159-107-61-26-126-39-195-39z" horiz-adv-x="1000" />

<glyph glyph-name="warning" unicode="&#xe833;" d="M118-150h889c91 0 147 98 102 176l-444 765c-46 79-159 79-205 0l-444-765c-45-78 11-176 102-176z m445 412c-33 0-59 26-59 58v118c0 32 26 59 59 59 32 0 59-27 59-59v-118c0-32-27-58-59-58z m59-236h-118v118h118v-118z" horiz-adv-x="1125" />

<glyph glyph-name="calendar" unicode="&#xe834;" d="M350 850v-100h300v100h100v-100h200c13 0 26-5 35-15 10-9 15-22 15-35v-800c0-13-5-26-15-35-9-10-22-15-35-15h-900c-13 0-26 5-35 15-10 9-15 22-15 35v800c0 13 5 26 15 35 9 10 22 15 35 15h200v100h100z m550-350h-800v-550h800v550z m-248-107l71-70-248-248-177 177 71 71 106-107 177 177z" horiz-adv-x="1000" />

<glyph glyph-name="filter" unicode="&#xe835;" d="M588 350v-438c3-16-3-34-17-46-5-5-12-9-19-12-7-3-14-4-22-4-8 0-16 1-23 4-7 3-13 7-19 12l-118 112c-6 6-11 13-14 21-3 8-4 17-3 25v326h-2l-339 410c-9 12-13 26-12 41 2 14 10 28 22 37 12 8 24 12 37 12h823c13 0 26-4 37-12 12-9 20-23 22-37 2-15-3-29-12-41l-339-410h-2z" horiz-adv-x="1000" />

<glyph glyph-name="link-ext" unicode="&#xe836;" d="M844-150h-688c-33 0-65 13-88 37-23 23-37 55-37 88v688c0 33 14 64 37 88 23 23 55 37 88 37h250v-125h-250v-688h688v250h125v-250c0-33-13-65-37-88-23-24-55-37-88-37z m-331 393l-89 89 394 393h-224v125h437v-437h-125v224l-393-394z" horiz-adv-x="1063" />

<glyph glyph-name="man" unicode="&#xe837;" d="M200 650c55 0 100 45 100 100 0 55-45 100-100 100-55 0-100-45-100-100 0-55 45-100 100-100z m150-50h-300c-13 0-26-5-35-15-10-9-15-22-15-35v-350h100v-350h200v350h100v350c0 13-5 26-15 35-9 10-22 15-35 15z" horiz-adv-x="400" />

<glyph glyph-name="heart" unicode="&#xe838;" d="M571-150l-82 71c-97 83-176 154-239 214-63 60-113 114-150 161-37 48-63 92-78 132-15 40-22 81-22 122 0 86 30 157 90 214 60 57 135 86 224 86 50 0 97-10 142-30 45-20 83-48 115-84 33 36 71 64 116 84 45 20 92 30 142 30 89 0 164-29 224-86 60-57 90-128 90-214 0-41-7-82-22-122-15-40-41-84-78-132-37-47-87-101-150-161-63-60-142-131-239-214l-83-71z m0 0l-82 71c-97 83-176 154-239 214-63 60-113 114-150 161-37 48-63 92-78 132-15 40-22 81-22 122 0 86 30 157 90 214 60 57 135 86 224 86 50 0 97-10 142-30 45-20 83-48 115-84 33 36 71 64 116 84 45 20 92 30 142 30 89 0 164-29 224-86 60-57 90-128 90-214 0-41-7-82-22-122-15-40-41-84-78-132-37-47-87-101-150-161-63-60-142-131-239-214l-83-71z" horiz-adv-x="1143" />

<glyph glyph-name="circle-info" unicode="&#xe839;" d="M450 600v-100h100v100h-100z m150-500v100h-50v200h-150v-100h50v-100h-50v-100h200z m400 250c0-275-225-500-500-500-275 0-500 225-500 500 0 275 225 500 500 500 275 0 500-225 500-500z m-100 0c0 221-179 400-400 400-221 0-400-179-400-400 0-221 179-400 400-400 221 0 400 179 400 400z" horiz-adv-x="1000" />

<glyph glyph-name="bank-card" unicode="&#xe83a;" d="M1125 600v125h-1000v-125h1000z m0-250h-1000v-375h1000v375z m-1125 375c0 69 56 125 125 125h1000c33 0 65-13 88-37 24-23 37-55 37-88v-750c0-33-13-65-37-88-23-24-55-37-88-37h-1000c-33 0-65 13-88 37-24 23-37 55-37 88v750z m250-500h250v-125h-250v125z" horiz-adv-x="1250" />

<glyph glyph-name="close" unicode="&#xe83b;" d="M978 827c-7 7-15 13-25 17-9 3-19 5-29 5-10 0-19-2-29-5-9-4-17-10-24-17l-371-370-371 371c-7 7-15 12-24 16-10 4-19 6-29 6-10 0-20-2-29-6-9-4-18-9-25-16-7-7-12-15-16-25-4-9-6-19-6-29 0-10 2-19 6-29 4-9 9-17 16-24l371-371-371-371c-7-7-12-15-16-24-4-10-6-19-6-29 0-10 2-20 6-29 4-10 9-18 16-25 7-7 16-12 25-16 9-4 19-6 29-6 10 0 19 2 29 6 9 4 17 9 24 16l371 371 371-371c7-7 15-12 24-16 10-4 19-6 29-6 10 0 20 2 29 6 10 4 18 9 25 16 7 7 12 15 16 25 4 9 6 19 6 29 0 10-2 19-6 29-4 9-9 17-16 24l-371 371 371 371c29 29 29 77 0 106z" horiz-adv-x="1000" />

<glyph glyph-name="trash" unicode="&#xe83c;" d="M54-39c0-61 48-111 107-111h428c59 0 107 50 107 111v556c0 61-48 111-107 111h-428c-59 0-107-50-107-111v-556z m642 833h-133l-38 40c-10 10-24 16-38 16h-224c-14 0-28-6-37-16l-38-40h-134c-30 0-54-25-54-55 0-31 24-56 54-56h642c30 0 54 25 54 56 0 30-24 55-54 55z" horiz-adv-x="750" />

<glyph glyph-name="pen" unicode="&#xe83d;" d="M892 512l-233 230 77 77c21 21 47 31 77 31 31 0 57-10 78-31l76-77c21-21 32-47 33-76 1-30-9-55-30-76l-78-78z m-79-81l-580-581h-233v233l580 581 233-233z" horiz-adv-x="1000" />

<glyph glyph-name="bell" unicode="&#xe83e;" d="M875 58v-41h-750v41l83 84v250c0 129 85 243 209 279 0 4 0 8 0 12a83 83 0 0 0 83 84 83 83 0 0 0 83-84c0-4 0-8 0-12 124-36 209-150 209-279v-250l83-84m-292-83a83 83 0 0 0-83-83 83 83 0 0 0-83 83" horiz-adv-x="1000" />

<glyph glyph-name="profile-mobile" unicode="&#xe83f;" d="M278 628c0 59 23 115 65 157 42 42 98 65 157 65 59 0 116-23 157-65 42-42 65-98 65-157 0-59-23-116-65-157-41-42-98-65-157-65-59 0-115 23-157 65-42 41-65 98-65 157z m0-334c-74 0-144-29-197-81-52-52-81-123-81-196 0-45 18-87 49-118 31-31 74-49 118-49h666c45 0 87 18 118 49 31 31 49 73 49 118 0 73-29 144-81 196-52 52-123 81-197 81h-444z" horiz-adv-x="1000" />

<glyph glyph-name="down-open" unicode="&#xf004;" d="M0 533q0 25 18 43t44 18 42-18l305-303 304 303q18 18 43 18t43-18q18-18 18-43t-18-43l-390-391-391 391q-18 19-18 43z" horiz-adv-x="817.4" />

<glyph glyph-name="up-open" unicode="&#xf005;" d="M0 167q0 26 18 43l391 391 390-391q17-17 17-43 0-26-17-44-18-17-44-17t-43 17l-303 305-305-305q-18-17-43-17t-43 17q-18 18-18 44z" horiz-adv-x="816.9" />

<glyph glyph-name="right-open" unicode="&#xf006;" d="M0 0q0 25 18 43l305 304-305 304q-18 18-18 44t18 43 44 18 43-18l390-391-390-391q-19-18-43-18t-44 18q-18 18-18 44z" horiz-adv-x="495.1" />

<glyph glyph-name="left-open" unicode="&#xf007;" d="M0 353l391 391q18 18 43 18 24 0 43-18 18-18 18-44t-18-43l-304-304 304-305q18-17 18-43t-18-43q-18-18-43-18t-43 18z" horiz-adv-x="495.1" />

<glyph glyph-name="facebook-circled" unicode="&#xf051;" d="M0 350q0 95 37 182t100 149 150 100 182 37 182-37 149-100 100-149 37-182-37-182-100-150-149-100-182-37-182 37-150 100-100 150-37 182z m351 0h52v-253h105v253h70l9 87h-79v44q0 20 6 27t29 8h43v87h-70q-61 0-87-29t-26-85v-52h-52v-87z" horiz-adv-x="937.5" />

<glyph glyph-name="tag" unicode="&#xf07b;" d="M156 569q0 27 18 45v0q17 17 45 17t45-17 17-45-17-45-45-18-45 18-18 45v0z m231 219q51 0 88-38l343-343q36-37 36-88t-36-88l-261-262q-37-35-88-35t-88 35l-344 344q-37 37-37 88v293q2 39 27 66 28 26 67 28h293z m-283-409l343-343q22-18 43 0l262 261q18 22 0 43l-344 344q-10 10-21 10h-293v-293q0-12 10-22v0 0z" horiz-adv-x="875" />

<glyph glyph-name="exchange" unicode="&#xf0ec;" d="M1000 189v-107q0-7-5-12t-13-6h-768v-107q0-7-5-12t-13-6q-6 0-13 6l-178 178q-5 6-5 13 0 8 5 13l179 178q5 5 12 5 8 0 13-5t5-13v-107h768q7 0 13-5t5-13z m0 304q0-8-5-13l-179-178q-5-6-12-6-8 0-13 6t-5 12v107h-768q-7 0-13 6t-5 12v107q0 8 5 13t13 5h768v107q0 8 5 13t13 5q6 0 13-5l178-178q5-5 5-13z" horiz-adv-x="1000" />

<glyph glyph-name="upload-cloud" unicode="&#xf0ee;" d="M714 368q0 8-5 13l-196 196q-5 5-13 5t-13-5l-196-196q-5-6-5-13 0-8 5-13t13-5h125v-196q0-8 5-13t12-5h108q7 0 12 5t5 13v196h125q8 0 13 5t5 13z m357-161q0-89-62-151t-152-63h-607q-103 0-177 73t-73 177q0 72 39 134t105 92q-1 17-1 24 0 118 84 202t202 84q87 0 159-49t105-129q40 35 93 35 59 0 101-42t42-101q0-43-23-77 72-17 119-76t46-133z" horiz-adv-x="1071.4" />

<glyph glyph-name="doc-text" unicode="&#xf0f6;" d="M819 638q16-16 27-42t11-50v-642q0-23-15-38t-38-16h-750q-23 0-38 16t-16 38v892q0 23 16 38t38 16h500q22 0 49-11t42-27z m-248 136v-210h210q-5 17-12 23l-175 175q-6 7-23 12z m215-853v572h-232q-23 0-38 16t-16 37v233h-429v-858h715z m-572 483q0 7 5 12t13 5h393q8 0 13-5t5-12v-36q0-8-5-13t-13-5h-393q-8 0-13 5t-5 13v36z m411-125q8 0 13-5t5-13v-36q0-8-5-13t-13-5h-393q-8 0-13 5t-5 13v36q0 8 5 13t13 5h393z m0-143q8 0 13-5t5-13v-36q0-8-5-13t-13-5h-393q-8 0-13 5t-5 13v36q0 8 5 13t13 5h393z" horiz-adv-x="857.1" />

<glyph glyph-name="paper-plane" unicode="&#xf1d8;" d="M984 844q19-13 15-36l-142-857q-3-16-18-25-8-5-18-5-6 0-13 3l-253 104-135-165q-10-13-27-13-7 0-12 2-11 4-17 13t-7 21v195l482 590-596-516-221 91q-20 8-22 30-1 23 18 33l928 536q9 5 18 5 11 0 20-6z" horiz-adv-x="1000" />

<glyph glyph-name="whatsapp" unicode="&#xf232;" d="M550 307q7 0 54-25t50-30q1-2 1-8 0-18-9-42-9-22-40-37t-57-15q-32 0-106 35-55 25-95 66t-82 103q-41 60-40 108v5q2 50 41 88 14 12 29 12 4 0 10-1t11-1q11 0 15-3t8-16q5-11 19-49t14-41q0-12-19-33t-20-26q0-3 3-8 19-41 57-76 31-30 84-57 7-4 13-4 8 0 30 27t29 28z m-114-296q71 0 136 28t112 74 75 112 28 136-28 136-75 112-112 75-136 28-135-28-112-75-75-112-28-136q0-113 67-205l-44-130 135 43q88-58 192-58z m0 771q86 0 164-34t134-89 90-135 33-163-33-163-90-134-134-90-164-34q-108 0-203 53l-233-75 76 226q-60 99-60 217 0 86 33 163t90 135 134 89 163 34z" horiz-adv-x="857.1" />
</font>
</defs>
</svg>
